загрузка пожалуйста подождите

GRACE CLOWN SHOW(Шоу Клоуна Благодати)




:: Детали торрента
В закладки
Фильмы XviD/Mpeg/и другиеПрислуга / The Help (2011) BDRip Скачать
Хэш релиза9555c479918530860b3cc9e645770c6eca7db3a1
Постер/Скриншоты
           
ОписаниеРусское название: Прислуга
Оригинальное название: The Help
Год выпуска: 2011
Жанр: Драма
Производство: 1492 Pictures / DreamWorks Pictures / DreamWorks Studios / Harbinger Pictures / Imagenation Abu Dhabi FZ / Participant Media - США, Индия, ОАЭ
Режиссер: Тейт Тейлор
Актеры: Эмма Стоун,Виола Дэвис,Брайс Даллас Ховард,Октавия Спенсер,Джессика Честейн,Ана О’Райли,Эллисон Джэнни,Анна Кэмп,Элинор Генри,Эмма Генри

Описание фильма:
Американский Юг, на дворе 1960-е годы. Скитер только-только закончила университет и возвращается домой, в сонный городок Джексон, где никогда ничего не происходит. Она мечтает стать писательницей, вырваться в большой мир. Но для приличной девушки с Юга не пристало тешиться столь глупыми иллюзиями, приличной девушке следует выйти замуж и хлопотать по дому.
Мудрая Эйбилин на тридцать лет старше Скитер, она прислуживает в домах белых всю свою жизнь, вынянчила семнадцать детей и давно уже ничего не ждет от жизни, ибо сердце ее разбито после смерти единственного сына.
Минни — самая лучшая стряпуха во всем Джексоне, а еще она самая дерзкая служанка в городе. И острый язык не раз уже сослужил ей плохую службу. На одном месте Минни никогда подолгу не задерживается. Но с Минни лучше не связываться даже самым высокомерным белым дамочкам. Двух черных служанок и белую неопытную девушку объединяет одно — обостренное чувство справедливости и желание хоть как-то изменить порядок вещей. Смогут ли эти трое противостоять целому миру? Сумеют ли они выжить в этой борьбе?

http://www.kinopoisk.ru/rating/470553.gifhttp://img822.imageshack.us/img822/1479/screenshot2yex.png

Дата мировой премьеры: 10 августа 2011
Дата российской премьеры: 16 февраля 2012, «WDSSPR»
Дата выхода DVD релиза: 20 марта 2012, «Уолт Дисней Компани СНГ»

Качество видео: BDRip
Формат: AVI
Видео: 704x384 (1.83:1), 23.976 fps, XviD build 64 ~1937 kbps avg, 0.30 bit/pixel
Аудио #1: 48,0 КГц, AC3 Dolby Digital, 3/2 (L,C,R,l,r) + LFE ch, 448 Кбит/сек
Аудио #2: 48,0 КГц, AC3 Dolby Digital, 3/2 (L,C,R,l,r) + LFE ch, 448 Кбит/сек
Продолжительность: 02:26:14
Перевод: Профессиональный (Многоголосый закадровый)
Язык субтитров: Русские (полные), Русские (форсированные), Английские
Вид субтитров: Отдельным файлом
Семпл: multi-up.com/598254

MediaInfo Скрытый текст / Картинка

Общее
Полное имя                       : D:\Prisluga.2011.BDRip\Prisluga.2011.BDRip.avi
Формат                           : AVI
Формат/Информация                : Audio Video Interleave
Профиль формата                  : OpenDML
Размер файла                     : 2,91 Гбайт
Продолжительность                : 2 ч. 26 м.
Общий поток                      : 2845 Кбит/сек

Видео
Идентификатор                    : 0
Формат                           : MPEG-4 Visual
Профиль формата                  : Advanced Simple@L5
Параметр BVOP формата            : 1
Параметр QPel формата            : Нет
Параметр GMC формата             : Без точки перехода
Параметр матрицы формата         : Выборочная
Идентификатор кодека             : XVID
Идентификатор кодека/Подсказка   : XviD
Продолжительность                : 2 ч. 26 м.
Битрейт                          : 1933 Кбит/сек
Ширина                           : 704 пикселя
Высота                           : 384 пикселя
Соотношение сторон               : 16:9
Частота кадров                   : 23,976 кадра/сек
Цветовое пространство            : YUV
Субдискретизация насыщенности    : 4:2:0
Битовая глубина                  : 8 бит
Тип развёртки                    : Прогрессивная
Метод сжатия                     : С потерями
Бит/(Пиксели*Кадры)              : 0.298
Размер потока                    : 1,97 Гбайт (68%)
Библиотека кодирования           : XviD 64

Аудио #1
Идентификатор                    : 1
Формат                           : AC-3
Формат/Информация                : Audio Coding 3
Расширение режима                : CM (complete main)
Идентификатор кодека             : 2000
Продолжительность                : 2 ч. 26 м.
Вид битрейта                     : Постоянный
Битрейт                          : 448 Кбит/сек
Каналы                           : 6 каналов
Расположение каналов             : Front: L C R, Side: L R, LFE
Частота                          : 48,0 КГц
Битовая глубина                  : 16 бит
Метод сжатия                     : С потерями
Размер потока                    : 469 Мбайт (16%)
Выравнивание                     : Разделение по промежуткам
Продолжительность промежутка     : 42  мс. (1,00 видеокадр)
Время предзагрузки промежутка    : 500  мс.

Аудио #2
Идентификатор                    : 2
Формат                           : AC-3
Формат/Информация                : Audio Coding 3
Расширение режима                : CM (complete main)
Идентификатор кодека             : 2000
Продолжительность                : 2 ч. 26 м.
Вид битрейта                     : Постоянный
Битрейт                          : 448 Кбит/сек
Каналы                           : 6 каналов
Расположение каналов             : Front: L C R, Side: L R, LFE
Частота                          : 48,0 КГц
Битовая глубина                  : 16 бит
Метод сжатия                     : С потерями
Размер потока                    : 469 Мбайт (16%)
Выравнивание                     : Разделение по промежуткам
Продолжительность промежутка     : 42  мс. (1,00 видеокадр)
Время предзагрузки промежутка    : 500  мс.
ТипФильмы XviD/Mpeg/и другие
РаздающийПоследний раз был здесь 4:58:17 назад
Размер2.90 GB (3,116,197,076 байт)
Оценка
Оценка: 5.0 / 5 (5.0 из 5 с 5 Голосов)        (Log in to rate it)
Добавлен2011-12-01 13:17:45
Взят418
РаздалA_N_I_m_a_T_O_R Респект
Файлов: 4
В раздаче: 0 0
Скачан 273

:: Список комментариев
Страницы: «  1 2 
:: Не в сети microsoft777 :: Опытный пользователь :: upload 76.90 GB :: download 58.45 GB :: 1.32 :: 0

Очень жизненный фильм редко какие фильмы хочется смотреть несколько раз но этот фильм однозначно.Долго откладывал просмотр этого фильма из-за комментариев по поводу торта.По моему поступок Мини не преподносится как единственно правильный а как поступок человека доведенного до отчаяния.Наверняка она раскаивалась в том что сделала.


Добавлено: 2013-07-15 22:09:50

Всего 11 на 2 страницах по 10 на каждой странице.

Страницы: «  1 2 
 :: Добавить комментарий к торренту