загрузка пожалуйста подождите

GRACE CLOWN SHOW(Шоу Клоуна Благодати)




:: Детали торрента
В закладки
Фильмы XviD/Mpeg/и другиеДжони и друзья - Сборник передач (N/A) WEBRip Скачать
Хэш релиза5d0a0f6bbfc789d12b700c03695b445c0d50f178
Постер/Скриншоты
           
ОписаниеРусское название: Джони и друзья
Тема: Сборник передач (см. список передач ниже)
Год выпуска: N/A
Жанр: Видеопередачи, истории, свидетельства
В ролях: Джони и её друзья

Описание:
«Я предпочитаю быть в инвалидной коляске и знать Его...»

Содержание:
01. Чем церковь может помочь с детьми, страдающими аутизмом Скрытый текст / Картинка

Описание: Каждый родитель боится за своих детей, но, некоторые страхи становятся намного сильнее, когда ребенку ставят диагноз аутизм. Очень важно, чтобы церковь уделила время, остановилась, послушала и спросила себя: «Как я могу помочь им развеять этот страх?».

MediaInfo Скрытый текст / Картинка

Video
ID                               : 1
Format                           : MPEG-4 Visual
Format profile                   : Simple@L3
Format settings, BVOP            : No
Format settings, QPel            : No
Format settings, GMC             : No warppoints
Format settings, Matrix          : Default (H.263)
Codec ID                         : 20
Duration                         : 28mn 31s
Bit rate mode                    : Variable
Bit rate                         : 792 Kbps
Width                            : 720 pixels
Height                           : 480 pixels
Display aspect ratio             : 4:3
Frame rate mode                  : Constant
Frame rate                       : 25.000 fps
Standard                         : NTSC
Color space                      : YUV
Chroma subsampling               : 4:2:0
Bit depth                        : 8 bits
Scan type                        : Progressive
Compression mode                 : Lossy
Bits/(Pixel*Frame)               : 0.092
Stream size                      : 162 MiB (84%)
Writing library                  : XviD 1.1.2 (UTC 2006-11-01)

Audio
ID                               : 2
Format                           : AAC
Format/Info                      : Advanced Audio Codec
Format profile                   : LC
Codec ID                         : 40
Duration                         : 28mn 30s
Bit rate mode                    : Variable
Bit rate                         : 144 Kbps
Channel(s)                       : 2 channels
Channel positions                : Front: L R
Sampling rate                    : 48.0 KHz
Compression mode                 : Lossy
Stream size                      : 29.6 MiB (15%)


02. От трагедии - к триумфу Скрытый текст / Картинка

Описание: Это – жизнь, обычная жизнь. Кажется, что всё, нарушающее обычную жизнь, – трагедии, аварии и другие события, в корне изменяющие жизнь, – всё это случается с другими. Это случилось с семьёй Слэйтов – они жили нормальной жизнью обычной американской семьи в тихом городке на Среднем 0Западе.

MediaInfo Скрытый текст / Картинка

Video
ID                               : 1
Format                           : MPEG-4 Visual
Format profile                   : Simple@L3
Format settings, BVOP            : No
Format settings, QPel            : No
Format settings, GMC             : No warppoints
Format settings, Matrix          : Default (H.263)
Codec ID                         : 20
Duration                         : 28mn 31s
Bit rate mode                    : Variable
Bit rate                         : 587 Kbps
Width                            : 720 pixels
Height                           : 480 pixels
Display aspect ratio             : 4:3
Frame rate mode                  : Constant
Frame rate                       : 25.000 fps
Standard                         : NTSC
Color space                      : YUV
Chroma subsampling               : 4:2:0
Bit depth                        : 8 bits
Scan type                        : Progressive
Compression mode                 : Lossy
Bits/(Pixel*Frame)               : 0.068
Stream size                      : 120 MiB (79%)
Writing library                  : XviD 1.1.2 (UTC 2006-11-01)

Audio
ID                               : 2
Format                           : AAC
Format/Info                      : Advanced Audio Codec
Format profile                   : LC
Codec ID                         : 40
Duration                         : 28mn 31s
Bit rate mode                    : Variable
Bit rate                         : 151 Kbps
Channel(s)                       : 2 channels
Channel positions                : Front: L R
Sampling rate                    : 48.0 KHz
Compression mode                 : Lossy
Stream size                      : 30.7 MiB (20%)


03. Начни жить Скрытый текст / Картинка

Описание: Знаете, я встречаю самых необычных людей. Я смотрю на скорби и беды, через которые им приходится проходить, и задаюсь вопросом: «Как они это делают?» Я имею в виду, как они могут сохранять свою веру в Бога? Ведь не всегда легко подчиняться Его водительству и жить христианской жизнью, даже тогда, когда всё идёт так, как мы хотим, верно?
Но порой в это уравнение добавляется страдание, наша жизнь изменяется, бывает, что изменяется навсегда, и так, что боль и страдание уже не прекращаются. Вот тогда следование за Богом становится совсем другим делом, не так ли?

MediaInfo Скрытый текст / Картинка

Video
ID                               : 1
Format                           : MPEG-4 Visual
Format profile                   : Simple@L3
Format settings, BVOP            : No
Format settings, QPel            : No
Format settings, GMC             : No warppoints
Format settings, Matrix          : Default (H.263)
Codec ID                         : 20
Duration                         : 28mn 31s
Bit rate mode                    : Variable
Bit rate                         : 576 Kbps
Width                            : 720 pixels
Height                           : 480 pixels
Display aspect ratio             : 4:3
Frame rate mode                  : Constant
Frame rate                       : 25.000 fps
Standard                         : NTSC
Color space                      : YUV
Chroma subsampling               : 4:2:0
Bit depth                        : 8 bits
Scan type                        : Progressive
Compression mode                 : Lossy
Bits/(Pixel*Frame)               : 0.067
Stream size                      : 118 MiB (79%)
Writing library                  : XviD 1.1.2 (UTC 2006-11-01)

Audio
ID                               : 2
Format                           : AAC
Format/Info                      : Advanced Audio Codec
Format profile                   : LC
Codec ID                         : 40
Duration                         : 28mn 31s
Bit rate mode                    : Variable
Bit rate                         : 144 Kbps
Channel(s)                       : 2 channels
Channel positions                : Front: L R
Sampling rate                    : 48.0 KHz
Compression mode                 : Lossy
Stream size                      : 29.8 MiB (20%)


04. Благословенного Рождества! Скрытый текст / Картинка

Описание: Я хочу, чтобы вы знали, что милость Иисуса Христа покроет все самые печальные моменты вашей жизни в это Рождество, потому что Иисус знает ваши переживания! Наш чудесный Спаситель помнит, что однажды и Он был лишен радости. Он знает, что значит быть неприглашённым на праздник. Он знает, каково это - остаться одиноким. Над Ним насмехались, а родился Он в грязном хлеву.

MediaInfo Скрытый текст / Картинка

Video
ID                               : 1
Format                           : MPEG-4 Visual
Format profile                   : Simple@L3
Format settings, BVOP            : No
Format settings, QPel            : No
Format settings, GMC             : No warppoints
Format settings, Matrix          : Default (H.263)
Codec ID                         : 20
Duration                         : 28mn 30s
Bit rate mode                    : Variable
Bit rate                         : 813 Kbps
Width                            : 720 pixels
Height                           : 480 pixels
Display aspect ratio             : 4:3
Frame rate mode                  : Constant
Frame rate                       : 25.000 fps
Standard                         : NTSC
Color space                      : YUV
Chroma subsampling               : 4:2:0
Bit depth                        : 8 bits
Scan type                        : Progressive
Compression mode                 : Lossy
Bits/(Pixel*Frame)               : 0.094
Stream size                      : 166 MiB (84%)
Writing library                  : XviD 1.1.2 (UTC 2006-11-01)

Audio
ID                               : 2
Format                           : AAC
Format/Info                      : Advanced Audio Codec
Format profile                   : LC
Codec ID                         : 40
Duration                         : 28mn 30s
Bit rate mode                    : Variable
Bit rate                         : 144 Kbps
Channel(s)                       : 2 channels
Channel positions                : Front: L R
Sampling rate                    : 48.0 KHz
Compression mode                 : Lossy
Stream size                      : 29.9 MiB (15%)


05. Когда жизнь нелегка Скрытый текст / Картинка

Описание: Все мы встречаем таких людей, которые становятся для нас примером. Для кого-то это любимый учитель или тренер. Возможно, для вас это друг или родственник, но для меня примером является Вики Оливас. У нее паралич, как и у меня. В тысяча девятьсот семьдесят шестом году в Вики стреляли, пытаясь ее ограбить. Затем, этого человека посадили на три года в тюрьму, а Вики на всю жизнь оказалась прикована к инвалидной коляске. И ее переход от уныния к горячей вере в Иисуса Христа нельзя назвать ничем иным, как чудом. Мы с ней были друзьями на протяжении многих лет. Именно ей я звоню, когда нуждаюсь в словах ободрения или в молитве. Вики вдохновляет меня, и я верю, что сегодня она вдохновит и вас.

MediaInfo Скрытый текст / Картинка

Video
ID                               : 1
Format                           : MPEG-4 Visual
Format profile                   : Simple@L3
Format settings, BVOP            : No
Format settings, QPel            : No
Format settings, GMC             : No warppoints
Format settings, Matrix          : Default (H.263)
Codec ID                         : 20
Duration                         : 29mn 11s
Bit rate mode                    : Variable
Bit rate                         : 661 Kbps
Width                            : 720 pixels
Height                           : 480 pixels
Display aspect ratio             : 4:3
Frame rate mode                  : Constant
Frame rate                       : 25.000 fps
Standard                         : NTSC
Color space                      : YUV
Chroma subsampling               : 4:2:0
Bit depth                        : 8 bits
Scan type                        : Progressive
Compression mode                 : Lossy
Bits/(Pixel*Frame)               : 0.076
Stream size                      : 138 MiB (81%)
Writing library                  : XviD 1.1.2 (UTC 2006-11-01)

Audio
ID                               : 2
Format                           : AAC
Format/Info                      : Advanced Audio Codec
Format profile                   : LC
Codec ID                         : 40
Duration                         : 29mn 11s
Bit rate mode                    : Variable
Bit rate                         : 153 Kbps
Channel(s)                       : 2 channels
Channel positions                : Front: L R
Sampling rate                    : 48.0 KHz
Compression mode                 : Lossy
Stream size                      : 32.0 MiB (19%)


06. Дружная семья Скрытый текст / Картинка

Описание: Мы хотим, чтобы не только наши дети, но и дети наших детей, и их дети ходили в праведности. Семья - это то место, где мы учимся взаимоотношениям, учимся давать, принимать, и взрослеем.

MediaInfo Скрытый текст / Картинка

Video
ID                               : 1
Format                           : MPEG-4 Visual
Format profile                   : Simple@L3
Format settings, BVOP            : No
Format settings, QPel            : No
Format settings, GMC             : No warppoints
Format settings, Matrix          : Default (H.263)
Codec ID                         : 20
Duration                         : 28mn 31s
Bit rate mode                    : Variable
Bit rate                         : 1 348 Kbps
Width                            : 720 pixels
Height                           : 480 pixels
Display aspect ratio             : 4:3
Frame rate mode                  : Constant
Frame rate                       : 25.000 fps
Standard                         : NTSC
Color space                      : YUV
Chroma subsampling               : 4:2:0
Bit depth                        : 8 bits
Scan type                        : Progressive
Compression mode                 : Lossy
Bits/(Pixel*Frame)               : 0.156
Stream size                      : 275 MiB (89%)
Writing library                  : XviD 1.1.2 (UTC 2006-11-01)

Audio
ID                               : 2
Format                           : AAC
Format/Info                      : Advanced Audio Codec
Format profile                   : LC
Codec ID                         : 40
Duration                         : 28mn 31s
Bit rate mode                    : Variable
Bit rate                         : 165 Kbps
Channel(s)                       : 2 channels
Channel positions                : Front: L R
Sampling rate                    : 48.0 KHz
Compression mode                 : Lossy
Stream size                      : 33.8 MiB (11%)


07. Мир Эмили Скрытый текст / Картинка

Описание: Здравствуйте, меня зовут Джони Ирексон Тада. Меня вдохновляет потрясающее поколение молодых людей «Кристиан Джен Некст», которые сейчас появятся. Я вижу в них целеустремленность, энтузиазм и огромное желание служить Богу, и это просто поразительно. Я хочу познакомить вас с одним из таких людей: это моя подруга Эмили Шанахан. Я получила большое благословение с самого первого момента, как мы с ней познакомились! И прежде чем начать рассказывать ее историю, я бы хотела, чтобы вы поприветствовали ее родителей.

MediaInfo Скрытый текст / Картинка

Video
ID                               : 1
Format                           : MPEG-4 Visual
Format profile                   : Simple@L3
Format settings, BVOP            : No
Format settings, QPel            : No
Format settings, GMC             : No warppoints
Format settings, Matrix          : Default (H.263)
Codec ID                         : 20
Duration                         : 28mn 31s
Bit rate mode                    : Variable
Bit rate                         : 942 Kbps
Width                            : 720 pixels
Height                           : 480 pixels
Display aspect ratio             : 4:3
Frame rate mode                  : Constant
Frame rate                       : 25.000 fps
Standard                         : NTSC
Color space                      : YUV
Chroma subsampling               : 4:2:0
Bit depth                        : 8 bits
Scan type                        : Progressive
Compression mode                 : Lossy
Bits/(Pixel*Frame)               : 0.109
Stream size                      : 192 MiB (86%)
Writing library                  : XviD 1.1.2 (UTC 2006-11-01)

Audio
ID                               : 2
Format                           : AAC
Format/Info                      : Advanced Audio Codec
Format profile                   : LC
Codec ID                         : 40
Duration                         : 28mn 31s
Bit rate mode                    : Variable
Bit rate                         : 144 Kbps
Channel(s)                       : 2 channels
Channel positions                : Front: L R
Sampling rate                    : 48.0 KHz
Compression mode                 : Lossy
Stream size                      : 29.8 MiB (13%)


08. Держась за надежду Скрытый текст / Картинка

Описание: Эта передача поднимает важные вопросы. Она для людей, которым трудно доверять Богу. Самые лучшие ответы – это судьбы людей из плоти и крови. Друзья мои, ответы вы найдете в жизни людей, которые каждый день переживают трагедию, паралич, мышечную дистрофия, инсульт, банкротство, одиночество. Мы будем обращаться к этим людям, судьба которых касается моего сердца.

MediaInfo Скрытый текст / Картинка

Video
ID                               : 1
Format                           : MPEG-4 Visual
Format profile                   : Simple@L3
Format settings, BVOP            : No
Format settings, QPel            : No
Format settings, GMC             : No warppoints
Format settings, Matrix          : Default (H.263)
Codec ID                         : 20
Duration                         : 28mn 31s
Bit rate mode                    : Variable
Bit rate                         : 728 Kbps
Width                            : 720 pixels
Height                           : 480 pixels
Display aspect ratio             : 4:3
Frame rate mode                  : Constant
Frame rate                       : 25.000 fps
Standard                         : NTSC
Color space                      : YUV
Chroma subsampling               : 4:2:0
Bit depth                        : 8 bits
Scan type                        : Progressive
Compression mode                 : Lossy
Bits/(Pixel*Frame)               : 0.084
Stream size                      : 149 MiB (83%)
Writing library                  : XviD 1.1.2 (UTC 2006-11-01)

Audio
ID                               : 2
Format                           : AAC
Format/Info                      : Advanced Audio Codec
Format profile                   : LC
Codec ID                         : 40
Duration                         : 28mn 31s
Bit rate mode                    : Variable
Bit rate                         : 148 Kbps
Channel(s)                       : 2 channels
Channel positions                : Front: L R
Sampling rate                    : 48.0 KHz
Compression mode                 : Lossy
Stream size                      : 30.1 MiB (17%)


09. Колёса для всего мира Скрытый текст / Картинка

Описание: Друзья мои, вы всегда будете получать великую радость, когда будете отдавать что-то нуждающимся. Вы не можете просто говорить о Божьей любви. Вам нужно показать любовь на деле, копать глубоко, отдавать что-то другим. И тогда вы получите благословение. Надеюсь, что наша история о служении «Колеса для всего мира» вдохновила вас.

MediaInfo Скрытый текст / Картинка

Video
ID                               : 1
Format                           : MPEG-4 Visual
Format profile                   : Simple@L3
Format settings, BVOP            : No
Format settings, QPel            : No
Format settings, GMC             : No warppoints
Format settings, Matrix          : Default (H.263)
Codec ID                         : 20
Duration                         : 28mn 30s
Bit rate mode                    : Variable
Bit rate                         : 1 513 Kbps
Width                            : 720 pixels
Height                           : 480 pixels
Display aspect ratio             : 4:3
Frame rate mode                  : Constant
Frame rate                       : 25.000 fps
Standard                         : NTSC
Color space                      : YUV
Chroma subsampling               : 4:2:0
Bit depth                        : 8 bits
Scan type                        : Progressive
Compression mode                 : Lossy
Bits/(Pixel*Frame)               : 0.175
Stream size                      : 308 MiB (91%)
Writing library                  : XviD 1.1.2 (UTC 2006-11-01)

Audio
ID                               : 2
Format                           : AAC
Format/Info                      : Advanced Audio Codec
Format profile                   : LC
Codec ID                         : 40
Duration                         : 28mn 30s
Bit rate mode                    : Variable
Bit rate                         : 148 Kbps
Channel(s)                       : 2 channels
Channel positions                : Front: L R
Sampling rate                    : 48.0 KHz
Compression mode                 : Lossy
Stream size                      : 30.3 MiB (9%)


10. В горе и в радости Скрытый текст / Картинка

Описание: Если вы спросите любую женатую пару, то они скажут вам, что брак - это непросто. Некоторые считают, что это дело, в котором оба супруга должны нести равную нагрузку. Ты вкладываешь свои пятьдесят процентов, а вторая половина – свои пятьдесят. Другие же считают, что в браке все их нужды будут восполнены. Но мало кто думает о том, что медовый месяц длится недолго, а инвалидность прибавляет проблем. Всё это относится ко мне и моему мужу Кену, так же, как и к нашим друзьям: Майку и Рене Бонди, с которыми мы встретимся через минуту. В Библии сказано, что Божья сила должна являться в нашей слабости, а значит, инвалидная коляска должна придавать браку силы. Посмотрим, так ли это.

MediaInfo Скрытый текст / Картинка

Video
ID                               : 1
Format                           : MPEG-4 Visual
Format profile                   : Simple@L3
Format settings, BVOP            : No
Format settings, QPel            : No
Format settings, GMC             : No warppoints
Format settings, Matrix          : Default (H.263)
Codec ID                         : 20
Duration                         : 27mn 33s
Bit rate mode                    : Variable
Bit rate                         : 888 Kbps
Width                            : 720 pixels
Height                           : 480 pixels
Display aspect ratio             : 4:3
Frame rate mode                  : Constant
Frame rate                       : 25.000 fps
Standard                         : NTSC
Color space                      : YUV
Chroma subsampling               : 4:2:0
Bit depth                        : 8 bits
Scan type                        : Progressive
Compression mode                 : Lossy
Bits/(Pixel*Frame)               : 0.103
Stream size                      : 175 MiB (85%)
Writing library                  : XviD 1.1.2 (UTC 2006-11-01)

Audio
ID                               : 2
Format                           : AAC
Format/Info                      : Advanced Audio Codec
Format profile                   : LC
Codec ID                         : 40
Duration                         : 27mn 33s
Bit rate mode                    : Variable
Bit rate                         : 151 Kbps
Channel(s)                       : 2 channels
Channel positions                : Front: L R
Sampling rate                    : 48.0 KHz
Compression mode                 : Lossy
Stream size                      : 29.7 MiB (14%)


11. Песня сердца Скрытый текст / Картинка

Описание: Жизнь порой наносит нам удары. Но что бы то ни было, я могу с уверенностью сказать, оглянувшись назад: слова из Послания к Филиппийцам 1:6 действительно истинны!

MediaInfo Скрытый текст / Картинка

Video
ID                               : 1
Format                           : MPEG-4 Visual
Format profile                   : Simple@L3
Format settings, BVOP            : No
Format settings, QPel            : No
Format settings, GMC             : No warppoints
Format settings, Matrix          : Default (H.263)
Codec ID                         : 20
Duration                         : 27mn 20s
Bit rate mode                    : Variable
Bit rate                         : 853 Kbps
Width                            : 720 pixels
Height                           : 480 pixels
Display aspect ratio             : 4:3
Frame rate mode                  : Constant
Frame rate                       : 25.000 fps
Standard                         : NTSC
Color space                      : YUV
Chroma subsampling               : 4:2:0
Bit depth                        : 8 bits
Scan type                        : Progressive
Compression mode                 : Lossy
Bits/(Pixel*Frame)               : 0.099
Stream size                      : 167 MiB (84%)
Writing library                  : XviD 1.1.2 (UTC 2006-11-01)

Audio
ID                               : 2
Format                           : AAC
Format/Info                      : Advanced Audio Codec
Format profile                   : LC
Codec ID                         : 40
Duration                         : 27mn 20s
Bit rate mode                    : Variable
Bit rate                         : 153 Kbps
Channel(s)                       : 2 channels
Channel positions                : Front: L R
Sampling rate                    : 48.0 KHz
Compression mode                 : Lossy
Stream size                      : 29.8 MiB (15%)


12. Нет места ненависти Скрытый текст / Картинка

Описание: В Библии, в книге Второзаконие сказано: «Избери жизнь, дабы жил ты…» Но как это? Как выбрать жизнь перед лицом фанатизма или ненависти? Как прорваться из тьмы к свету, свободе, надежде, помощи и счастью? Что ж, иногда нам надо увидеть ответ на этот вопрос на живом примере.

MediaInfo Скрытый текст / Картинка

Video
ID                               : 1
Format                           : MPEG-4 Visual
Format profile                   : Simple@L3
Format settings, BVOP            : No
Format settings, QPel            : No
Format settings, GMC             : No warppoints
Format settings, Matrix          : Default (H.263)
Codec ID                         : 20
Duration                         : 28mn 56s
Bit rate mode                    : Variable
Bit rate                         : 939 Kbps
Width                            : 720 pixels
Height                           : 480 pixels
Display aspect ratio             : 4:3
Frame rate mode                  : Constant
Frame rate                       : 25.000 fps
Standard                         : NTSC
Color space                      : YUV
Chroma subsampling               : 4:2:0
Bit depth                        : 8 bits
Scan type                        : Progressive
Compression mode                 : Lossy
Bits/(Pixel*Frame)               : 0.109
Stream size                      : 195 MiB (86%)
Writing library                  : XviD 1.1.2 (UTC 2006-11-01)

Audio
ID                               : 2
Format                           : AAC
Format/Info                      : Advanced Audio Codec
Format profile                   : LC
Codec ID                         : 40
Duration                         : 28mn 56s
Bit rate mode                    : Variable
Bit rate                         : 144 Kbps
Channel(s)                       : 2 channels
Channel positions                : Front: L R
Sampling rate                    : 48.0 KHz
Compression mode                 : Lossy
Stream size                      : 30.1 MiB (13%)


13. Верою, а не виденьем Скрытый текст / Картинка

Описание: Есть много людей с ограниченными способностями, которые не видят возможности жить в радости, и мы несем свет Христа в их тьму, помогаем им увидеть то, что увидел Брайан. Через наши передачи мы приводим таких людей в общение с Телом Христовым, чтобы они увидели, что говорится в Слове Божьем, и как это относится к церквям и служителям. И для этого вам вовсе не нужно иметь инвалидность!

MediaInfo Скрытый текст / Картинка

Video
ID                               : 1
Format                           : MPEG-4 Visual
Format profile                   : Simple@L3
Format settings, BVOP            : No
Format settings, QPel            : No
Format settings, GMC             : No warppoints
Format settings, Matrix          : Default (H.263)
Codec ID                         : 20
Duration                         : 28mn 21s
Bit rate mode                    : Variable
Bit rate                         : 1 330 Kbps
Width                            : 720 pixels
Height                           : 480 pixels
Display aspect ratio             : 4:3
Frame rate mode                  : Constant
Frame rate                       : 25.000 fps
Standard                         : NTSC
Color space                      : YUV
Chroma subsampling               : 4:2:0
Bit depth                        : 8 bits
Scan type                        : Progressive
Compression mode                 : Lossy
Bits/(Pixel*Frame)               : 0.154
Stream size                      : 270 MiB (90%)
Writing library                  : XviD 1.1.2 (UTC 2006-11-01)

Audio
ID                               : 2
Format                           : AAC
Format/Info                      : Advanced Audio Codec
Format profile                   : LC
Codec ID                         : 40
Duration                         : 28mn 21s
Bit rate mode                    : Variable
Bit rate                         : 144 Kbps
Channel(s)                       : 2 channels
Channel positions                : Front: L R
Sampling rate                    : 48.0 KHz
Compression mode                 : Lossy
Stream size                      : 28.8 MiB (10%)


14. Семья для сирот Скрытый текст / Картинка

Описание: Кто-то сказал, что в семье, где дети хотят быть вместе с родителями, нет проблем. Именно это мы и делаем на встречах «Джони и друзей». Мы помогаем матерям и отцам, имеющим детей-инвалидов, вырабатывать в семье дисциплину. Ведь только семьи, члены которых скромны, несмотря на все испытания, могут заложить основу для чудесного, здорового общества. И вот как об этом говорит Библия: «Праведность превозносит народ». Спасибо вам, Хопсоны, что вы показали нам, как это делать.

MediaInfo Скрытый текст / Картинка

Video
ID                               : 1
Format                           : MPEG-4 Visual
Format profile                   : Simple@L3
Format settings, BVOP            : No
Format settings, QPel            : No
Format settings, GMC             : No warppoints
Format settings, Matrix          : Default (H.263)
Codec ID                         : 20
Duration                         : 27mn 55s
Bit rate mode                    : Variable
Bit rate                         : 688 Kbps
Width                            : 720 pixels
Height                           : 480 pixels
Display aspect ratio             : 4:3
Frame rate mode                  : Constant
Frame rate                       : 25.000 fps
Standard                         : NTSC
Color space                      : YUV
Chroma subsampling               : 4:2:0
Bit depth                        : 8 bits
Scan type                        : Progressive
Compression mode                 : Lossy
Bits/(Pixel*Frame)               : 0.080
Stream size                      : 137 MiB (82%)
Writing library                  : XviD 1.1.2 (UTC 2006-11-01)

Audio
ID                               : 2
Format                           : AAC
Format/Info                      : Advanced Audio Codec
Format profile                   : LC
Codec ID                         : 40
Duration                         : 27mn 55s
Bit rate mode                    : Variable
Bit rate                         : 149 Kbps
Channel(s)                       : 2 channels
Channel positions                : Front: L R
Sampling rate                    : 48.0 KHz
Compression mode                 : Lossy
Stream size                      : 29.8 MiB (18%)


15. Трагедия Терри Шайво (2 части) Скрытый текст / Картинка

Описание к 1-й части: В этом специальном выпуске передачи «ДЖОНИ И ДРУЗЬЯ», который будет состоять из двух частей, мы еще раз вернемся к истории, которую, возможно, многие из вас уже знают. Уже многое было сказано об этой запутанной тяжбе, повлекшей за собой смерть тяжело больной женщины, но история Терри все еще остается для многих из нас непонятной, в результате чего мы упускаем важные уроки, которые могли бы из нее извлечь. Вы встретитесь с семьей Шайво и услышите их непредвзятое свидетельство из первых рук о том, как и почему они так усердно боролись за спасение жизни Терри.

Описание к 2-й части: История Терри Шайво напоминает нам, что мы стоим даже не на скользком пути, а уже катимся по наклонной. Если мы все как тело Христово не поднимемся дружно в этой борьбе, в каком мире будут жить наши дети? И если мы хотим распространять Царство Божье, нам необходимо твердо встать на защиту жизни!

MediaInfo к 1-й части Скрытый текст / Картинка

Video
ID                               : 1
Format                           : MPEG-4 Visual
Format profile                   : Simple@L3
Format settings, BVOP            : No
Format settings, QPel            : No
Format settings, GMC             : No warppoints
Format settings, Matrix          : Default (H.263)
Codec ID                         : 20
Duration                         : 28mn 31s
Bit rate mode                    : Variable
Bit rate                         : 663 Kbps
Width                            : 720 pixels
Height                           : 480 pixels
Display aspect ratio             : 4:3
Frame rate mode                  : Constant
Frame rate                       : 25.000 fps
Standard                         : NTSC
Color space                      : YUV
Chroma subsampling               : 4:2:0
Bit depth                        : 8 bits
Scan type                        : Progressive
Compression mode                 : Lossy
Bits/(Pixel*Frame)               : 0.077
Stream size                      : 135 MiB (81%)
Writing library                  : XviD 1.1.2 (UTC 2006-11-01)

Audio
ID                               : 2
Format                           : AAC
Format/Info                      : Advanced Audio Codec
Format profile                   : LC
Codec ID                         : 40
Duration                         : 28mn 31s
Bit rate mode                    : Variable
Bit rate                         : 144 Kbps
Channel(s)                       : 2 channels
Channel positions                : Front: L R
Sampling rate                    : 48.0 KHz
Compression mode                 : Lossy
Stream size                      : 29.8 MiB (18%)

MediaInfo к 2-й части Скрытый текст / Картинка

Video
ID                               : 1
Format                           : MPEG-4 Visual
Format profile                   : Simple@L3
Format settings, BVOP            : No
Format settings, QPel            : No
Format settings, GMC             : No warppoints
Format settings, Matrix          : Default (H.263)
Codec ID                         : 20
Duration                         : 28mn 31s
Bit rate mode                    : Variable
Bit rate                         : 738 Kbps
Width                            : 720 pixels
Height                           : 480 pixels
Display aspect ratio             : 4:3
Frame rate mode                  : Constant
Frame rate                       : 25.000 fps
Standard                         : NTSC
Color space                      : YUV
Chroma subsampling               : 4:2:0
Bit depth                        : 8 bits
Scan type                        : Progressive
Compression mode                 : Lossy
Bits/(Pixel*Frame)               : 0.085
Stream size                      : 151 MiB (83%)
Writing library                  : XviD 1.1.2 (UTC 2006-11-01)

Audio
ID                               : 2
Format                           : AAC
Format/Info                      : Advanced Audio Codec
Format profile                   : LC
Codec ID                         : 40
Duration                         : 28mn 31s
Bit rate mode                    : Variable
Bit rate                         : 144 Kbps
Channel(s)                       : 2 channels
Channel positions                : Front: L R
Sampling rate                    : 48.0 KHz
Compression mode                 : Lossy
Stream size                      : 29.5 MiB (16%)


16. Я и дом мой Скрытый текст / Картинка

Описание: Согласно Писанию, дети всегда были благословением. Есть много негативных причин, по которым люди не хотят иметь детей. Они говорят, что этот мир страшный, падший и злой, и кто захочет, чтобы в нем появился малыш? Но я смотрю на это более позитивно.

MediaInfo Скрытый текст / Картинка

Video
ID                               : 1
Format                           : MPEG-4 Visual
Format profile                   : Simple@L3
Format settings, BVOP            : No
Format settings, QPel            : No
Format settings, GMC             : No warppoints
Format settings, Matrix          : Default (H.263)
Codec ID                         : 20
Duration                         : 30mn 1s
Bit rate mode                    : Variable
Bit rate                         : 991 Kbps
Width                            : 720 pixels
Height                           : 480 pixels
Display aspect ratio             : 4:3
Frame rate mode                  : Constant
Frame rate                       : 25.000 fps
Standard                         : NTSC
Color space                      : YUV
Chroma subsampling               : 4:2:0
Bit depth                        : 8 bits
Scan type                        : Progressive
Compression mode                 : Lossy
Bits/(Pixel*Frame)               : 0.115
Stream size                      : 213 MiB (86%)
Writing library                  : XviD 1.1.2 (UTC 2006-11-01)

Audio
ID                               : 2
Format                           : AAC
Format/Info                      : Advanced Audio Codec
Format profile                   : LC
Codec ID                         : 40
Duration                         : 30mn 1s
Bit rate mode                    : Variable
Bit rate                         : 153 Kbps
Channel(s)                       : 2 channels
Channel positions                : Front: L R
Sampling rate                    : 48.0 KHz
Compression mode                 : Lossy
Stream size                      : 32.9 MiB (13%)


17. Сердце Холли Скрытый текст / Картинка

Описание: Холли Стротер - один из молодых лидеров в служении людям с ограниченными возможностями. На проекте Джони и друзья мы полностью посвящаем себя взращиванию нового поколения христианских лидеров, которые используют свою немощь для славы Божьей. Через наши семейные встречи, наши практические программы мы хотим сделать все возможное, чтобы вырастить молодых лидеров с ограниченными возможностями.

MediaInfo Скрытый текст / Картинка

Video
ID                               : 1
Format                           : MPEG-4 Visual
Format profile                   : Simple@L3
Format settings, BVOP            : No
Format settings, QPel            : No
Format settings, GMC             : No warppoints
Format settings, Matrix          : Default (H.263)
Codec ID                         : 20
Duration                         : 28mn 4s
Bit rate mode                    : Variable
Bit rate                         : 601 Kbps
Width                            : 720 pixels
Height                           : 480 pixels
Display aspect ratio             : 4:3
Frame rate mode                  : Constant
Frame rate                       : 25.000 fps
Standard                         : NTSC
Color space                      : YUV
Chroma subsampling               : 4:2:0
Bit depth                        : 8 bits
Scan type                        : Progressive
Compression mode                 : Lossy
Bits/(Pixel*Frame)               : 0.070
Stream size                      : 121 MiB (80%)
Writing library                  : XviD 1.1.2 (UTC 2006-11-01)

Audio
ID                               : 2
Format                           : AAC
Format/Info                      : Advanced Audio Codec
Format profile                   : LC
Codec ID                         : 40
Duration                         : 28mn 4s
Bit rate mode                    : Variable
Bit rate                         : 150 Kbps
Channel(s)                       : 2 channels
Channel positions                : Front: L R
Sampling rate                    : 48.0 KHz
Compression mode                 : Lossy
Stream size                      : 30.2 MiB (20%)


18. Палка о двух концах. Дебаты о стволовых концах Скрытый текст / Картинка

Описание: Слово Божье – наш путеводитель во всех жизненных вопросах. Нам незачем бояться медицинских достижений, потому что ничто в мире не представляет угрозы для Божьей истины. Тем не менее, наш долг, как верующих, – проверять и испытывать все медицинские достижения в свете Слова Божьего; и всё, что не противоречит истине, мы можем принимать. Но всему, что противоречит истине, мы должны решительно противостоять.

MediaInfo Скрытый текст / Картинка

Video
ID                               : 1
Format                           : MPEG-4 Visual
Format profile                   : Simple@L3
Format settings, BVOP            : No
Format settings, QPel            : No
Format settings, GMC             : No warppoints
Format settings, Matrix          : Default (H.263)
Codec ID                         : 20
Duration                         : 28mn 31s
Bit rate mode                    : Variable
Bit rate                         : 845 Kbps
Width                            : 720 pixels
Height                           : 480 pixels
Display aspect ratio             : 4:3
Frame rate mode                  : Constant
Frame rate                       : 25.000 fps
Standard                         : NTSC
Color space                      : YUV
Chroma subsampling               : 4:2:0
Bit depth                        : 8 bits
Scan type                        : Progressive
Compression mode                 : Lossy
Bits/(Pixel*Frame)               : 0.098
Stream size                      : 172 MiB (85%)
Writing library                  : XviD 1.1.2 (UTC 2006-11-01)

Audio
ID                               : 2
Format                           : AAC
Format/Info                      : Advanced Audio Codec
Format profile                   : LC
Codec ID                         : 40
Duration                         : 28mn 31s
Bit rate mode                    : Variable
Bit rate                         : 148 Kbps
Channel(s)                       : 2 channels
Channel positions                : Front: L R
Sampling rate                    : 48.0 KHz
Compression mode                 : Lossy
Stream size                      : 30.2 MiB (15%)


19. Решимость победить Скрытый текст / Картинка

Описание: Быть инвалидом тяжело. Тяжело как для тела, так и для сердца. Когда я могла пользоваться ногами, я любила спорт, играла в теннис и хоккей. Поэтому, выйдя из больницы после перелома шеи, я перестала ходить на бейсбольные и футбольные матчи. Мне было тяжело смотреть, как моя сестра ездит верхом, ведь раньше и я могла. Мне было ненавистно, что я – инвалид, что я – такая беспомощная. У меня ушло очень много времени на то, чтобы понять, что жизнь это – больше, чем просто возможность ходить. Так же и Джин пережила немало, улыбка на ее лице появилась не за один день. Эта женщина многое пережила в процессе исцеления внутренних ран и поэтому она – такая настоящая и простая, она так похожа на каждого из нас, несмотря на свой олимпийский статус.

MediaInfo Скрытый текст / Картинка

Video
ID                               : 1
Format                           : MPEG-4 Visual
Format profile                   : Simple@L3
Format settings, BVOP            : No
Format settings, QPel            : No
Format settings, GMC             : No warppoints
Format settings, Matrix          : Default (H.263)
Codec ID                         : 20
Duration                         : 28mn 15s
Bit rate mode                    : Variable
Bit rate                         : 974 Kbps
Width                            : 720 pixels
Height                           : 480 pixels
Display aspect ratio             : 4:3
Frame rate mode                  : Constant
Frame rate                       : 25.000 fps
Standard                         : NTSC
Color space                      : YUV
Chroma subsampling               : 4:2:0
Bit depth                        : 8 bits
Scan type                        : Progressive
Compression mode                 : Lossy
Bits/(Pixel*Frame)               : 0.113
Stream size                      : 197 MiB (86%)
Writing library                  : XviD 1.1.2 (UTC 2006-11-01)

Audio
ID                               : 2
Format                           : AAC
Format/Info                      : Advanced Audio Codec
Format profile                   : LC
Codec ID                         : 40
Duration                         : 28mn 14s
Bit rate mode                    : Variable
Bit rate                         : 150 Kbps
Channel(s)                       : 2 channels
Channel positions                : Front: L R
Sampling rate                    : 48.0 KHz
Compression mode                 : Lossy
Stream size                      : 30.4 MiB (13%)


20. У небесных дверей Скрытый текст / Картинка

Описание: Я всегда восхищалась старшим поколением. И вы знаете, что они пережили «великую депрессию», им пришлось столкнуться с одним из ужасных глобальных конфликтов всех времен - Второй мировой войной. Это те люди, которые определяют характер американского народа. Они сражались на земле, на море, в воздухе, летая на таких самолетах, на каком летал мой друг Доминик Мазза, скромный парень-весельчак, американец итальянского происхождения.

MediaInfo Скрытый текст / Картинка

Video
ID                               : 1
Format                           : MPEG-4 Visual
Format profile                   : Simple@L3
Format settings, BVOP            : No
Format settings, QPel            : No
Format settings, GMC             : No warppoints
Format settings, Matrix          : Default (H.263)
Codec ID                         : 20
Duration                         : 28mn 31s
Bit rate mode                    : Variable
Bit rate                         : 1 006 Kbps
Width                            : 720 pixels
Height                           : 480 pixels
Display aspect ratio             : 4:3
Frame rate mode                  : Constant
Frame rate                       : 25.000 fps
Standard                         : NTSC
Color space                      : YUV
Chroma subsampling               : 4:2:0
Bit depth                        : 8 bits
Scan type                        : Progressive
Compression mode                 : Lossy
Bits/(Pixel*Frame)               : 0.116
Stream size                      : 205 MiB (86%)
Writing library                  : XviD 1.1.2 (UTC 2006-11-01)

Audio
ID                               : 2
Format                           : AAC
Format/Info                      : Advanced Audio Codec
Format profile                   : LC
Codec ID                         : 40
Duration                         : 28mn 31s
Bit rate mode                    : Variable
Bit rate                         : 154 Kbps
Channel(s)                       : 2 channels
Channel positions                : Front: L R
Sampling rate                    : 48.0 KHz
Compression mode                 : Lossy
Stream size                      : 31.4 MiB (13%)


21. Дом для Марии Скрытый текст / Картинка

Описание: Жить меньше чем на два доллара в день, это – бедность. А если к этому добавить ещё и инвалидность, то жизнь становится ещё тяжелее, что мы и увидим в сегодняшнем эпизоде из жизни одной семьи. В небольшой деревне служение «Джони и друзья» вместе с партнерами нашего служения изменяют жизнь людей. Как они это делают? Обеспечивают людей такой простой вещью, как дом.

MediaInfo Скрытый текст / Картинка

Video
ID                               : 1
Format                           : MPEG-4 Visual
Format profile                   : Simple@L3
Format settings, BVOP            : No
Format settings, QPel            : No
Format settings, GMC             : No warppoints
Format settings, Matrix          : Default (H.263)
Codec ID                         : 20
Duration                         : 28mn 32s
Bit rate mode                    : Variable
Bit rate                         : 2 003 Kbps
Width                            : 720 pixels
Height                           : 480 pixels
Display aspect ratio             : 4:3
Frame rate mode                  : Constant
Frame rate                       : 25.000 fps
Standard                         : NTSC
Color space                      : YUV
Chroma subsampling               : 4:2:0
Bit depth                        : 8 bits
Scan type                        : Progressive
Compression mode                 : Lossy
Bits/(Pixel*Frame)               : 0.232
Stream size                      : 409 MiB (93%)
Writing library                  : XviD 1.1.2 (UTC 2006-11-01)

Audio
ID                               : 2
Format                           : AAC
Format/Info                      : Advanced Audio Codec
Format profile                   : LC
Codec ID                         : 40
Duration                         : 28mn 32s
Bit rate mode                    : Variable
Bit rate                         : 148 Kbps
Channel(s)                       : 2 channels
Channel positions                : Front: L R
Sampling rate                    : 48.0 KHz
Compression mode                 : Lossy
Stream size                      : 30.2 MiB (7%)


22. Райан. Наследие надежды Скрытый текст / Картинка

Описание: Один разговор с доктором, и ваша жизнь изменилась навсегда. Всего минуту назад вы были вне себя от счастья, и тут вы впадаете в шок, в ужас, от того факта, что ваша жизнь больше никогда не будет прежней. Именно в такой ситуации оказался Даг Мазза.

MediaInfo Скрытый текст / Картинка

Video
ID                               : 1
Format                           : MPEG-4 Visual
Format profile                   : Simple@L3
Format settings, BVOP            : No
Format settings, QPel            : No
Format settings, GMC             : No warppoints
Format settings, Matrix          : Default (H.263)
Codec ID                         : 20
Duration                         : 28mn 35s
Bit rate mode                    : Variable
Bit rate                         : 1 112 Kbps
Width                            : 720 pixels
Height                           : 480 pixels
Display aspect ratio             : 4:3
Frame rate mode                  : Constant
Frame rate                       : 25.000 fps
Standard                         : NTSC
Color space                      : YUV
Chroma subsampling               : 4:2:0
Bit depth                        : 8 bits
Scan type                        : Progressive
Compression mode                 : Lossy
Bits/(Pixel*Frame)               : 0.129
Stream size                      : 228 MiB (88%)
Writing library                  : XviD 1.1.2 (UTC 2006-11-01)

Audio
ID                               : 2
Format                           : AAC
Format/Info                      : Advanced Audio Codec
Format profile                   : LC
Codec ID                         : 40
Duration                         : 28mn 35s
Bit rate mode                    : Variable
Bit rate                         : 144 Kbps
Channel(s)                       : 2 channels
Channel positions                : Front: L R
Sampling rate                    : 48.0 KHz
Compression mode                 : Lossy
Stream size                      : 29.6 MiB (11%)


23. Семейный лагерь служения ''Джони и друзья'' Скрытый текст / Картинка

Описание: Когда в нашем служении впервые возникла идея о семейном лагере, мы представили себе неделю наполненного, динамичного, непринуждённого, интересного духовного отдыха и общения для семей, в которых есть инвалид. Лагеря, где вся семья, включая ребёнка или взрослого-инвалида, могла приехать и воспользоваться возможностью получить освежение. Отдых должен быть интересным и необычным, чтоб не было ограничений одной музыкой и плаванием.

MediaInfo Скрытый текст / Картинка

Video
ID                               : 1
Format                           : MPEG-4 Visual
Format profile                   : Simple@L3
Format settings, BVOP            : No
Format settings, QPel            : No
Format settings, GMC             : No warppoints
Format settings, Matrix          : Default (H.263)
Codec ID                         : 20
Duration                         : 28mn 31s
Bit rate mode                    : Variable
Bit rate                         : 1 719 Kbps
Width                            : 720 pixels
Height                           : 480 pixels
Display aspect ratio             : 4:3
Frame rate mode                  : Constant
Frame rate                       : 25.000 fps
Standard                         : NTSC
Color space                      : YUV
Chroma subsampling               : 4:2:0
Bit depth                        : 8 bits
Scan type                        : Progressive
Compression mode                 : Lossy
Bits/(Pixel*Frame)               : 0.199
Stream size                      : 351 MiB (92%)
Writing library                  : XviD 1.1.2 (UTC 2006-11-01)

Audio
ID                               : 2
Format                           : AAC
Format/Info                      : Advanced Audio Codec
Format profile                   : LC
Codec ID                         : 40
Duration                         : 28mn 31s
Bit rate mode                    : Variable
Bit rate                         : 152 Kbps
Channel(s)                       : 2 channels
Channel positions                : Front: L R
Sampling rate                    : 48.0 KHz
Compression mode                 : Lossy
Stream size                      : 31.0 MiB (8%)


24. Когда в семье появляется инвалид Скрытый текст / Картинка

Описание: В этой передаче мы побываем в гостях у титанов христианского богословия – у Чака Колсона и Ар. Си. Спраула. В современную эпоху они помогли сформировать Библейское мировоззрение, которое ведёт церковь. Они указывают другим на то, что Слово Божье надёжно и оказывает практическую помощь.

MediaInfo Скрытый текст / Картинка

Video
ID                               : 1
Format                           : MPEG-4 Visual
Format profile                   : Simple@L3
Format settings, BVOP            : No
Format settings, QPel            : No
Format settings, GMC             : No warppoints
Format settings, Matrix          : Default (H.263)
Codec ID                         : 20
Duration                         : 28mn 31s
Bit rate mode                    : Variable
Bit rate                         : 1 004 Kbps
Width                            : 720 pixels
Height                           : 480 pixels
Display aspect ratio             : 4:3
Frame rate mode                  : Constant
Frame rate                       : 25.000 fps
Standard                         : NTSC
Color space                      : YUV
Chroma subsampling               : 4:2:0
Bit depth                        : 8 bits
Scan type                        : Progressive
Compression mode                 : Lossy
Bits/(Pixel*Frame)               : 0.116
Stream size                      : 205 MiB (87%)
Writing library                  : XviD 1.1.2 (UTC 2006-11-01)

Audio
ID                               : 2
Format                           : AAC
Format/Info                      : Advanced Audio Codec
Format profile                   : LC
Codec ID                         : 40
Duration                         : 28mn 31s
Bit rate mode                    : Variable
Bit rate                         : 144 Kbps
Channel(s)                       : 2 channels
Channel positions                : Front: L R
Sampling rate                    : 48.0 KHz
Compression mode                 : Lossy
Stream size                      : 29.7 MiB (13%)


25. Семейные ритриты Скрытый текст / Картинка

Описание: Семейные ритриты - это прекрасная картина того, как мы видим церковь. Это прекрасный образ того, как мы можем принимать слабых членов. Ваше отношение должно быть таким же, как и у Иисуса Христа». Друзья, с каждым семейным ритритом мы исцеляем травмированные семьи. Мы приглашаем вас, стать частью этого приключения, которое изменяет жизни людей, и достичь ещё больше семей той любовью, которую мы видели в улыбках Джо, Кортни, Элэйн и Скотта. Придите к нам на служение волонтером, и та семья, в которой вы будете служить, никогда не останется прежней.

MediaInfo Скрытый текст / Картинка

Video
ID                               : 1
Format                           : MPEG-4 Visual
Format profile                   : Simple@L3
Format settings, BVOP            : No
Format settings, QPel            : No
Format settings, GMC             : No warppoints
Format settings, Matrix          : Default (H.263)
Codec ID                         : 20
Duration                         : 27mn 21s
Bit rate mode                    : Variable
Bit rate                         : 1 970 Kbps
Width                            : 720 pixels
Height                           : 480 pixels
Display aspect ratio             : 4:3
Frame rate mode                  : Constant
Frame rate                       : 25.000 fps
Standard                         : NTSC
Color space                      : YUV
Chroma subsampling               : 4:2:0
Bit depth                        : 8 bits
Scan type                        : Progressive
Compression mode                 : Lossy
Bits/(Pixel*Frame)               : 0.228
Stream size                      : 386 MiB (93%)
Writing library                  : XviD 1.1.2 (UTC 2006-11-01)

Audio
ID                               : 2
Format                           : AAC
Format/Info                      : Advanced Audio Codec
Format profile                   : LC
Codec ID                         : 40
Duration                         : 27mn 21s
Bit rate mode                    : Variable
Bit rate                         : 148 Kbps
Channel(s)                       : 2 channels
Channel positions                : Front: L R
Sampling rate                    : 48.0 KHz
Compression mode                 : Lossy
Stream size                      : 28.9 MiB (7%)


Добавлено 26.12.2012: Скрытый текст / Картинка

26. Джони и друзья
Эта передача поднимает важные вопросы. Она – для людей, которым трудно доверять Богу. Самые лучшие ответы – это судьбы людей из плоти и крови
27. Живопись для славы Божьей
Джони многое смогла преодолеть благодаря Божьей благодати. И если Господь дает ей силы подняться над обстоятельствами, то что же Он может сделать в жизнях других?
28-29. История семьи Беррик
Ваши трудности - это не ошибка. Страдания в вашу жизнь приходят для того, чтобы вы передавали Божье утешение и ободрение другим.
30. Кристиан Ройал в руках Гончара
Люди-инвалиды развивают дары данные им Богом и Божья сила сияет через их жизни. Это назидает всех нас, напоминая о том, что сила Бога в нашей слабости
31-32 Отчаяние и надежда Гаити
Катастрофическое землетрясение, которое произошло 12 января 2010 году в Гаити, погубило десятки тысяч человек, миллион человек остались без крова. Прошло уже много времени с тех пор, как новость о землетрясении в Гаити исчезла из заголовков новостей, но в реальности мало что изменилось, и люди по-прежнему страдают
33. Сара и Лидия
Инвалидность нередко подразумевает одиночество. Жизнь человека с инвалидностью очень отличается от жизни других людей. Для созидания тела Христова Бог благословил духовными дарами людей-инвалидов, они обретаю крылья и служат Богу.
34. Смысл жизни
Инвалидность нередко подразумевает одиночество. Жизнь человека с инвалидностью очень отличается от жизни других людей. Для созидания тела Христова Бог благословил духовными дарами людей-инвалидов, они обретаю крылья и служат Богу
35. Таинство молитвы
Не забывайте, что молитва - это двухсторонний разговор. Возможно, вам есть что сказать Богу, но то же самое касается и Бога. Не забывайте слушать Бога, ведь когда мы молимся, происходят великие вещи.
36. У меня есть вопросы. Ник Вуйчич
Помню, как мама давала мне советы, когда дети дразнили меня. Во-первых, не обращать внимания. Я знал, что это невозможно, но она советовала мне не обращать внимания на то, что они вкладывали в свои слова. То есть, не верить в ту ложь, что я недостаточно хорош, не верить в то, что они говорят правду. Они не знают, кто я на самом деле. Дело не в том, что ты делаешь или как ты выглядишь, а в том, кто ты есть.


Качество: WEBRip
Формат: AVI
Видео: MPEG-4 (H.263), 1651 Кбит/сек, 720х480 пикс., 4:3, 25,000 кадр/сек
Аудио: AAC, 144,0 Кбит/сек, 2 канала, Front: L R, 48,0 КГц
Продолжительность: 26x ~ 00:28:30
Перевод: Русский профессиональный (двухголосый)
Субтитры Нет
ТипФильмы XviD/Mpeg/и другие
РаздающийПоследний раз был здесь 1:13:08 назад
Размер9.09 GB (9,764,669,101 байт)
Оценка
Оценка: 5.0 / 5 (5.0 из 5 с 5 Голосов)        (Log in to rate it)
Добавлен2011-05-23 14:10:52
Взят220
РаздалA_N_I_m_a_T_O_R Респект
Файлов: 37
В раздаче: 1 0
Скачан 134

:: Список комментариев
Страницы:  1 
:: Не в сети Maaas :: VIP :: upload 388.76 GB :: download 235.69 GB :: 1.65 :: +1

Какие замечательные передачи, на каждой рыдаю!


Добавлено: 2011-06-23 20:20:59

:: Не в сети AngelA :: Опытный пользователь :: upload 343.57 GB :: download 197.73 GB :: 1.74 :: 0

превосходно!!!! побольше бы такого!!!!!!!


Добавлено: 2011-10-21 20:57:54

:: Не в сети О_л_е_Г ::Donor Отзывчивый брат :) :: upload 168.25 TB :: download 2.04 TB :: 82.34 :: +1

:!: Торент файл обновлён. Добавлены новые серии.


Добавлено: 2012-12-26 21:20:06

Всего 3 на 1 страницах по 10 на каждой странице.

Страницы:  1 
 :: Добавить комментарий к торренту